Wachigaiya Itosato – 輪違屋糸里 ~女たちの新撰組~ – 2007

 20,00

Episodes: 2

Format : AVI
Format/Info : Audio Video Interleave
File size : 1.54 GiB
Duration : 1 h 32 min
Overall bit rate : 2 391 kb/s
Writing library : This file was made by AviUtl 0.98d.

Video
ID : 0
Format : MPEG-4 Visual
Format settings, BVOP : No
Format settings, QPel : No
Format settings, GMC : No warppoints
Format settings, Matrix : Default (MPEG)
Codec ID : DX50
Codec ID/Hint : DivX 5
Duration : 1 h 32 min
Bit rate : 2 252 kb/s
Width : 1 280 pixels
Height : 720 pixels
Display aspect ratio : 16:9
Frame rate : 29.970 (30000/1001) FPS
Color space : YUV
Chroma subsampling : 4:2:0
Bit depth : 8 bits
Scan type : Progressive
Compression mode : Lossy
Bits/(Pixel*Frame) : 0.082
Stream size : 1.45 GiB (94%)
Writing library : DivX 6.6.1.4

Audio
ID : 1
Format : MPEG Audio
Format version : Version 1
Format profile : Layer 3
Format settings : Joint stereo / MS Stereo
Codec ID : 55
Codec ID/Hint : MP3
Duration : 1 h 32 min
Bit rate mode : Constant
Bit rate : 128 kb/s
Channel(s) : 2 channels
Sampling rate : 48.0 kHz
Compression mode : Lossy
Stream size : 84.5 MiB (5%)
Alignment : Split accross interleaves
Interleave, duration : 33 ms (1.00 video frame)
Interleave, preload duratio : 22 ms



Exclusive products NHK

Special category of products NHK
0
YOUR CART
  • No products in the cart.