Shikaku Ukeoinin – 刺客請負人 – Season 1 – 2007

 79,00

EP: 1-4 – 1280x720p – EP: 5-8 – 720×396

Format : MPEG-4
Format profile : Base Media
Codec ID : isom (isom)
File size : 1.17 GiB
Duration : 1 h 30 min
Overall bit rate mode : Variable
Overall bit rate : 1 849 kb/s
Encoded date : UTC 2008-07-17 16:00:16
Tagged date : UTC 2008-07-17 16:00:16

Video
ID : 1
Format : AVC
Format/Info : Advanced Video Codec
Format profile : High@L4.2
Format settings : CABAC / 2 Ref Frames
Format settings, CABAC : Yes
Format settings, ReFrames : 2 frames
Codec ID : avc1
Codec ID/Info : Advanced Video Coding
Duration : 1 h 30 min
Duration_FirstFrame : -17 ms
Bit rate : 1 688 kb/s
Maximum bit rate : 27.8 Mb/s
Width : 1 280 pixels
Height : 720 pixels
Display aspect ratio : 16:9
Frame rate mode : Variable
Frame rate : 29.970 (30000/1001) FPS
Minimum frame rate : 29.970 FPS
Maximum frame rate : 39.960 FPS
Color space : YUV
Chroma subsampling : 4:2:0
Bit depth : 8 bits
Scan type : Progressive
Bits/(Pixel*Frame) : 0.061
Stream size : 1.07 GiB (91%)
Writing library : x264 core 60 r906 ceb2df9
Encoding settings : cabac=1 / ref=1 / deblock=1:2:2 / analyse=0x3:0x113 / me=umh / subme=7 / brdo=0 / mixed_ref=0 / me_range=16 / chroma_me=1 / trellis=0 / 8x8dct=1 / cqm=0 / deadzone=21,11 / chroma_qp_offset=0 / threads=6 / nr=0 / decimate=1 / mbaff=0 / bframes=2 / b_pyramid=0 / b_adapt=1 / b_bias=0 / direct=3 / wpredb=0 / bime=0 / keyint=250 / keyint_min=25 / scenecut=40(pre) / rc=crf / crf=22.0 / rceq=’blurCplx^(1-qComp)’ / qcomp=1.00 / qpmin=10 / qpmax=51 / qpstep=4 / ip_ratio=1.40 / pb_ratio=1.30 / aq=2:1.00
Encoded date : UTC 2008-07-17 13:37:05
Tagged date : UTC 2008-07-17 16:00:50

Audio
ID : 2
Format : AAC
Format/Info : Advanced Audio Codec
Format profile : LC
Codec ID : mp4a-40-2
Duration : 1 h 30 min
Duration_LastFrame : -8 ms
Bit rate mode : Variable
Bit rate : 157 kb/s
Maximum bit rate : 209 kb/s
Channel(s) : 2 channels
Channel positions : Front: L R
Sampling rate : 48.0 kHz
Frame rate : 46.875 FPS (1024 SPF)
Compression mode : Lossy
Stream size : 102 MiB (9%)
Encoded date : UTC 2008-07-18 15:57:07
Tagged date : UTC 2008-07-17 16:00:50

 

 

 

SKU: Shikaku Ukeoinin – 刺客請負人 – Season 1 - 2007 Category: Tags: , , , , ,


Exclusive products NHK

Special category of products NHK
0
YOUR CART
  • No products in the cart.