Ryoma ni Omakase! – 竜馬におまかせ! – 1996

 30,00

EP: 12

Format : AVI
Format/Info : Audio Video Interleave
File size : 233 MiB
Duration : 46 min 7 s
Overall bit rate mode : Variable
Overall bit rate : 706 kb/s
Writing application : VirtualDubMod 1.5.4.1 (build 2178/release)
Writing library : VirtualDubMod build 2178/release

Video
ID : 0
Format : MPEG-4 Visual
Format settings : BVOP1
Format settings, BVOP : 1
Format settings, QPel : No
Format settings, GMC : No warppoints
Format settings, Matrix : Default (H.263)
Muxing mode : Packed bitstream
Codec ID : DX50
Codec ID/Hint : DivX 5
Duration : 46 min 7 s
Bit rate : 579 kb/s
Nominal bit rate : 6 951 kb/s
Width : 480 pixels
Height : 368 pixels
Display aspect ratio : 4:3
Frame rate : 29.970 (30000/1001) FPS
Color space : YUV
Chroma subsampling : 4:2:0
Bit depth : 8 bits
Scan type : Progressive
Compression mode : Lossy
Bits/(Pixel*Frame) : 0.109
Stream size : 191 MiB (82%)
Writing library : DivX 5.2.1 (DrDivX 106) (UTC 2004-09-08)

Audio
ID : 1
Format : MPEG Audio
Format version : Version 1
Format profile : Layer 3
Format settings : Joint stereo / MS Stereo
Codec ID : 55
Codec ID/Hint : MP3
Duration : 46 min 6 s
Bit rate mode : Variable
Bit rate : 112 kb/s
Nominal bit rate : 128 kb/s
Channel(s) : 2 channels
Sampling rate : 48.0 kHz
Frame rate : 41.667 FPS (1152 SPF)
Compression mode : Lossy
Stream size : 37.1 MiB (16%)
Alignment : Aligned on interleaves
Interleave, duration : 24 ms (0.72 video frame)
Interleave, preload duratio : 553 ms
Writing library : LAME3.97b
Encoding settings : -m j -V 4 -q 2 -lowpass 17 –abr 128

Want a discount? Become a member!

SKU: Ryoma ni Omakase! – 竜馬におまかせ! – 1996 Category: Tags: , , , ,


Exclusive products NHK

Special category of products NHK
0