50 %

NHK 44 – Yoshitsune – EP 1

 5,00

Format : Matroska
Format version : Version 2
File size : 2.17 GiB
Duration : 59 min 31 s
Overall bit rate mode : Variable
Overall bit rate : 5 219 kb/s
Encoded date : UTC 2018-09-09 17:23:21
Writing application : MakeMKV v1.12.3 win(x64-release)
Writing library : libmakemkv v1.12.3 (1.3.5/1.4.7) win(x64-release)

Video
ID : 1
ID in the original source m : 224 (0xE0)
Format : MPEG Video
Format version : Version 2
Format profile : Main@Main
Format settings : CustomMatrix / BVOP
Format settings, BVOP : Yes
Format settings, Matrix : Custom
Format settings, GOP : Variable
Format settings, picture st : Frame
Codec ID : V_MPEG2
Codec ID/Info : MPEG 1 or 2 Video
Duration : 59 min 31 s
Bit rate mode : Variable
Bit rate : 5 021 kb/s
Maximum bit rate : 9 800 kb/s
Width : 720 pixels
Height : 480 pixels
Display aspect ratio : 16:9
Frame rate mode : Constant
Frame rate : 29.970 (30000/1001) FPS
Standard : Component
Color space : YUV
Chroma subsampling : 4:2:0
Bit depth : 8 bits
Scan type : Interlaced
Scan order : Top Field First
Compression mode : Lossy
Bits/(Pixel*Frame) : 0.485
Time code of first frame : 10:00:00;00
Time code source : Group of pictures header
GOP, Open/Closed : Open
GOP, Open/Closed of first f : Closed
Stream size : 2.09 GiB (96%)
Language : English
Default : No
Forced : No
Color primaries : BT.601 NTSC
Transfer characteristics : BT.601
Matrix coefficients : BT.601
Original source medium : DVD-Video

Audio
ID : 2
ID in the original source m : 189 (0xBD)128 (0x80)
Format : AC-3
Format/Info : Audio Coding 3
Codec ID : A_AC3
Duration : 59 min 31 s
Bit rate mode : Constant
Bit rate : 192 kb/s
Channel(s) : 2 channels
Channel positions : Front: L R
Sampling rate : 48.0 kHz
Frame rate : 31.250 FPS (1536 SPF)
Bit depth : 16 bits
Compression mode : Lossy
Stream size : 81.7 MiB (4%)
Title : Stereo
Language : Japanese
Service kind : Complete Main
Default : Yes
Forced : No
Original source medium : DVD-Video

Menu
00:00:00.000 : en:Chapter 01
00:06:12.105 : en:Chapter 02
00:09:00.273 : en:Chapter 03
00:18:04.783 : en:Chapter 04
00:31:34.659 : en:Chapter 05
00:46:25.816 : en:Chapter 06
00:55:36.966 : en:Chapter 07
00:57:59.943 : en:Chapter 08



Exclusive products NHK

Special category of products NHK
0
YOUR CART
  • No products in the cart.