NHK 28 – Tobuga Gotoku – 翔ぶが如く – 1990

 120,00

EP: 48 –  18 EP are in Apple QuickTime MPEG-4 native

Format : AVI
Format/Info : Audio Video Interleave
Format profile : OpenDML
File size : 1.30 GiB
Duration : 1 h 23 min
Overall bit rate : 2 220 kb/s

Video
ID : 0
Format : MPEG-4 Visual
Format settings : BVOP2
Format settings, BVOP : 2
Format settings, QPel : No
Format settings, GMC : No warppoints
Format settings, Matrix : Default (H.263)
Muxing mode : Packed bitstream
Codec ID : DX50
Codec ID/Hint : DivX 5
Duration : 1 h 23 min
Bit rate : 804 kb/s
Width : 640 pixels
Height : 480 pixels
Display aspect ratio : 4:3
Frame rate : 29.970 (30000/1001) FPS
Color space : YUV
Chroma subsampling : 4:2:0
Bit depth : 8 bits
Scan type : Progressive
Compression mode : Lossy
Bits/(Pixel*Frame) : 0.087
Stream size : 483 MiB (36%)
Writing library : DivX 6.8.5 (UTC 2009-08-20)

Audio
ID : 1
Format : PCM
Format settings : Little / Signed
Codec ID : 1
Duration : 1 h 23 min
Bit rate mode : Constant
Bit rate : 1 411.2 kb/s
Channel(s) : 2 channels
Sampling rate : 44.1 kHz
Bit depth : 16 bits
Stream size : 846 MiB (64%)
Alignment : Aligned on interleaves
Interleave, duration : 968 ms (29.00 video frames)

Apple QuickTime MPEG-4 native

Format : AVI
Format/Info : Audio Video Interleave
File size : 436 MiB
Duration : 43 min 50 s
Overall bit rate : 1 389 kb/s

Video
ID : 0
Format : MPEG-4 Visual
Format profile : Advanced Simple@L5
Format settings : BVOP1 / GMC3 / QPel
Format settings, BVOP : 1
Format settings, QPel : Yes
Format settings, GMC : 3 warppoints
Format settings, Matrix : Default (H.263)
Muxing mode : Packed bitstream
Codec ID : MP4V
Codec ID/Info : Apple QuickTime MPEG-4 native
Duration : 43 min 50 s
Bit rate : 1 050 kb/s
Nominal bit rate : 8 000 kb/s
Width : 640 pixels
Height : 480 pixels
Display aspect ratio : 4:3
Frame rate : 29.970 (30000/1001) FPS
Color space : YUV
Chroma subsampling : 4:2:0
Bit depth : 8 bits
Scan type : Progressive
Compression mode : Lossy
Bits/(Pixel*Frame) : 0.114
Stream size : 329 MiB (76%)
Writing library : DivX 1393

Audio
ID : 1
Format : MPEG Audio
Format version : Version 1
Format profile : Layer 3
Format settings : Joint stereo
Codec ID : 55
Codec ID/Hint : MP3
Duration : 43 min 50 s
Bit rate mode : Constant
Bit rate : 320 kb/s
Channel(s) : 2 channels
Sampling rate : 48.0 kHz
Compression mode : Lossy
Stream size : 100 MiB (23%)
Alignment : Aligned on interleaves
Interleave, duration : 24 ms (0.72 video frame)
Interleave, preload duratio : 1008 ms

 



Exclusive products NHK

Special category of products NHK
0