Lone Wolf and Cub – Kozure Ōkami – 子連れ狼 – 1976 – Season 3

 65,00

episode: 26

Format : AVI
Format/Info : Audio Video Interleave
File size : 730 MiB
Duration : 46 min 14 s
Overall bit rate : 2 207 kb/s
Writing application : VirtualDubMod 1.5.4.1 (build 2178/release)
Writing library : VirtualDubMod build 2178/release

Video
ID : 0
Format : MPEG-4 Visual
Format profile : Advanced Simple@L5
Format settings : BVOP1
Format settings, BVOP : 1
Format settings, QPel : No
Format settings, GMC : No warppoints
Format settings, Matrix : Default (H.263)
Muxing mode : Packed bitstream
Codec ID : XVID
Codec ID/Hint : XviD
Duration : 46 min 14 s
Bit rate : 1 942 kb/s
Width : 592 pixels
Height : 448 pixels
Display aspect ratio : 4:3
Frame rate : 29.970 (30000/1001) FPS
Color space : YUV
Chroma subsampling : 4:2:0
Bit depth : 8 bits
Scan type : Progressive
Compression mode : Lossy
Bits/(Pixel*Frame) : 0.244
Stream size : 642 MiB (88%)
Writing library : XviD 1.2.0.dev45 (UTC 2006-07-10)

Audio
ID : 1
Format : AC-3
Format/Info : Audio Coding 3
Codec ID : 2000
Duration : 46 min 14 s
Bit rate mode : Constant
Bit rate : 256 kb/s
Channel(s) : 2 channels
Channel positions : Front: L R
Sampling rate : 48.0 kHz
Frame rate : 31.250 FPS (1536 SPF)
Bit depth : 16 bits
Compression mode : Lossy
Stream size : 84.7 MiB (12%)
Alignment : Split accross interleaves
Interleave, duration : 67 ms (2.00 video frames)
Interleave, preload duratio : 500 ms
Service kind : Complete Main

 



Exclusive products NHK

Special category of products NHK
0
YOUR CART
  • No products in the cart.