Hattori Hanzō Kage no Gundan (1985) Season 4

 79,99

4 – Kage no Gundan IV (1985) – 27 episodes – 19.2 GB – Shadow Warriors

Description

4 – Kage no Gundan IV (1985) – 27 episodes – 19.2 GB – Shadow Warriors

Format : AVI
Format/Info : Audio Video Interleave
File size : 665 MiB
Duration : 46 min 12 s
Overall bit rate : 2 012 kb/s
Movie name : Kage No Gundan s4e01
Writing application : Lavf53.21.0
Original source form/Name : KAGE4_2

Video
ID : 0
Format : MPEG-4 Visual
Format profile : Advanced Simple@L5
Format settings : BVOP2
Format settings, BVOP : 2
Format settings, QPel : No
Format settings, GMC : No warppoints
Format settings, Matrix : Default (H.263)
Muxing mode : Packed bitstream
Codec ID : XVID
Codec ID/Hint : XviD
Duration : 46 min 12 s
Bit rate : 1 808 kb/s
Width : 632 pixels
Height : 478 pixels
Display aspect ratio : 4:3
Frame rate : 29.970 (30000/1001) FPS
Original frame rate : 29.970 (29970/1000) FPS
Color space : YUV
Chroma subsampling : 4:2:0
Bit depth : 8 bits
Scan type : Progressive
Compression mode : Lossy
Bits/(Pixel*Frame) : 0.200
Stream size : 598 MiB (90%)
Writing library : XviD 1.2.1 (UTC 2008-12-04)

Audio
ID : 1
Format : AC-3
Format/Info : Audio Coding 3
Codec ID : 2000
Duration : 46 min 11 s
Bit rate mode : Constant
Bit rate : 192 kb/s
Channel(s) : 2 channels
Channel positions : Front: L R
Sampling rate : 48.0 kHz
Frame rate : 31.250 FPS (1536 SPF)
Bit depth : 16 bits
Compression mode : Lossy
Stream size : 63.4 MiB (10%)
Alignment : Aligned on interleaves
Interleave, duration : 32 ms (0.96 video frame)
Service kind : Complete Main

Get the FREE eBook...
Enter your email address and click on the Get Instant Access button. PDF will be send
I agree to have my personal information transfered to MailChimp ( more information )
We respect your privacy

Reviews

There are no reviews yet.

Only logged in customers who have purchased this product may leave a review.



Exclusive products NHK

Special category of products NHK
0