Hattori Hanzō Kage no Gundan (1982) Season 3

 79,99

3 – Kage no Gundan III (1982) – 26 episodes – 11.0 GB – Shadow Warriors

Description

3 – Kage no Gundan III (1982) – 26 episodes – 11.0 GB – Shadow Warriors

 

Format : MPEG-4
Format profile : Base Media / Version 2
Codec ID : mp42 (mp42/isom/avc1)
File size : 361 MiB
Duration : 40 min 14 s
Overall bit rate mode : Variable
Overall bit rate : 1 256 kb/s
Encoded date : UTC 2012-09-08 19:51:36
Tagged date : UTC 2012-09-08 20:00:02
Writing application : HandBrake 0.9.8 2012071700

Video
ID : 1
Format : MPEG-4 Visual
Format profile : Simple@L1
Format settings, BVOP : No
Format settings, QPel : No
Format settings, GMC : No warppoints
Format settings, Matrix : Default (H.263)
Codec ID : mp4v-20
Duration : 40 min 14 s
Bit rate mode : Variable
Bit rate : 1 093 kb/s
Maximum bit rate : 2 933 Mb/s
Width : 704 pixels
Height : 472 pixels
Display aspect ratio : 4:3
Frame rate mode : Variable
Frame rate : 29.922 FPS
Minimum frame rate : 9.990 FPS
Maximum frame rate : 29.970 FPS
Color space : YUV
Chroma subsampling : 4:2:0
Bit depth : 8 bits
Scan type : Progressive
Compression mode : Lossy
Bits/(Pixel*Frame) : 0.110
Stream size : 314 MiB (87%)
Writing library : Lavc53.15.0
Encoded date : UTC 2012-09-08 19:51:36
Tagged date : UTC 2012-09-08 20:00:02
Color primaries : BT.601 NTSC
Transfer characteristics : BT.709
Matrix coefficients : BT.601
Menus : 3

Audio
ID : 2
Format : AAC
Format/Info : Advanced Audio Codec
Format profile : LC
Codec ID : mp4a-40-2
Duration : 40 min 14 s
Bit rate mode : Variable
Bit rate : 160 kb/s
Maximum bit rate : 203 kb/s
Channel(s) : 2 channels
Channel positions : Front: L R
Sampling rate : 48.0 kHz
Frame rate : 46.875 FPS (1024 SPF)
Compression mode : Lossy
Stream size : 46.0 MiB (13%)
Title : Stereo
Encoded date : UTC 2012-09-08 19:51:36
Tagged date : UTC 2012-09-08 20:00:02

Menu
ID : 3
Codec ID : text
Duration : 40 min 14 s
Encoded date : UTC 2012-09-08 19:51:36
Tagged date : UTC 2012-09-08 20:00:02
Bit rate mode : CBR
Menu For : 1
00:00:00.000 : Chapter 1
00:05:23.397 : Chapter 2
00:10:35.717 : Chapter 3
00:16:08.059 : Chapter 4
00:21:32.891 : Chapter 5
00:26:56.724 : Chapter 6
00:32:25.061 : Chapter 7
00:37:43.887 : Chapter 8

Get the FREE eBook...
Enter your email address and click on the Get Instant Access button. PDF will be send
I agree to have my personal information transfered to MailChimp ( more information )
We respect your privacy

Reviews

There are no reviews yet.

Only logged in customers who have purchased this product may leave a review.



Exclusive products NHK

Special category of products NHK
0