Hattori Hanzō Kage no Gundan (1981) Season 2

 79,99

2 – Kage no Gundan II (1981 – 1982) – 26 episodes – 17.7 GB GB – Shadow Warriors

Description

2 – Kage no Gundan II (1981 – 1982) – 26 episodes – 17.7 GB GB – Shadow Warriors

Format : AVI
Format/Info : Audio Video Interleave
File size : 577 MiB
Duration : 46 min 7 s
Overall bit rate : 1 748 kb/s
Movie name : Kage No Gundan Season 2 ep01
Writing application : Lavf53.21.0
Original source form/Name : KAGE_NO_GUNDAN_II_VOL_01

Video
ID : 0
Format : MPEG-4 Visual
Format profile : Advanced Simple@L5
Format settings : BVOP2
Format settings, BVOP : 2
Format settings, QPel : No
Format settings, GMC : No warppoints
Format settings, Matrix : Default (H.263)
Muxing mode : Packed bitstream
Codec ID : XVID
Codec ID/Hint : XviD
Duration : 46 min 7 s
Bit rate : 1 544 kb/s
Width : 634 pixels
Height : 478 pixels
Display aspect ratio : 4:3
Frame rate : 29.970 (30000/1001) FPS
Original frame rate : 29.970 (29970/1000) FPS
Color space : YUV
Chroma subsampling : 4:2:0
Bit depth : 8 bits
Scan type : Progressive
Compression mode : Lossy
Bits/(Pixel*Frame) : 0.170
Stream size : 509 MiB (88%)
Writing library : XviD 1.2.1 (UTC 2008-12-04)

Audio
ID : 1
Format : AC-3
Format/Info : Audio Coding 3
Codec ID : 2000
Duration : 46 min 6 s
Bit rate mode : Constant
Bit rate : 192 kb/s
Channel(s) : 2 channels
Channel positions : Front: L R
Sampling rate : 48.0 kHz
Frame rate : 31.250 FPS (1536 SPF)
Bit depth : 16 bits
Compression mode : Lossy
Stream size : 63.3 MiB (11%)
Alignment : Aligned on interleaves
Interleave, duration : 32 ms (0.96 video frame)
Service kind : Complete Main

Get the FREE eBook...
Enter your email address and click on the Get Instant Access button. PDF will be send
I agree to have my personal information transfered to MailChimp ( more information )
We respect your privacy

Reviews

There are no reviews yet.

Only logged in customers who have purchased this product may leave a review.



Exclusive products NHK

Special category of products NHK
0