Hattori Hanzō Kage no Gundan (1980) Season 1

 79,99

1 – Hattori Hanzō Kage no Gundan (1980) – 27 episodes – 22.4 GB Shadow Warriors

Season 1: 1980-Apr-01 to 1980-Sep-30 (27 eps)

Description

1 – Hattori Hanzō Kage no Gundan (1980) – 27 episodes – 22.4 GB Shadow Warriors

Season 1: 1980-Apr-01 to 1980-Sep-30 (27 eps)

Format : AVI
Format/Info : Audio Video Interleave
File size : 744 MiB
Duration : 45 min 38 s
Overall bit rate : 2 279 kb/s
Movie name : Disc 1 side a.Title1.DVDRip
Writing application : Lavf52.17.0
Original source form/Name : Disc 1 side a

Video
ID : 0
Format : MPEG-4 Visual
Format profile : Simple@L3
Format settings, BVOP : No
Format settings, QPel : No
Format settings, GMC : No warppoints
Format settings, Matrix : Default (H.263)
Codec ID : XVID
Codec ID/Hint : XviD
Duration : 45 min 38 s
Bit rate : 2 137 kb/s
Width : 608 pixels
Height : 456 pixels
Display aspect ratio : 4:3
Frame rate : 29.970 (30000/1001) FPS
Color space : YUV
Chroma subsampling : 4:2:0
Bit depth : 8 bits
Scan type : Progressive
Compression mode : Lossy
Bits/(Pixel*Frame) : 0.257
Stream size : 698 MiB (94%)
Writing library : XviD 1.1.2 (UTC 2006-11-01)

Audio
ID : 1
Format : MPEG Audio
Format version : Version 1
Format profile : Layer 3
Format settings : Joint stereo / MS Stereo
Codec ID : 55
Codec ID/Hint : MP3
Duration : 45 min 37 s
Bit rate mode : Constant
Bit rate : 128 kb/s
Channel(s) : 2 channels
Sampling rate : 48.0 kHz
Compression mode : Lossy
Stream size : 41.8 MiB (6%)
Alignment : Aligned on interleaves
Interleave, duration : 24 ms (0.72 video frame)

Get the FREE eBook...
Enter your email address and click on the Get Instant Access button. PDF will be send
I agree to have my personal information transfered to MailChimp ( more information )
We respect your privacy

Reviews

There are no reviews yet.

Only logged in customers who have purchased this product may leave a review.



Exclusive products NHK

Special category of products NHK
0
YOUR CART
  • No products in the cart.